* Dettagli Torrent   globale  | Commenti (0) 


- Fear.the.Walking.Dead.4x16.Mi.Sono.Perso.ITA.ENG.1080p.AMZN.WEB-DLMux.H.264-Morpheus.mkv -


Download via torrent:
Categoria bittorrent SerieTv
Descrizione
[center]

GIUSEPPEiCV & LITTLELINX
HANNO IL PIACERE DI PRESENTARE


STAGIONE 4
WEBMUX 1080p
ITA - ENG Ac3




.: Dati Serie :.


Nazione: Stati Uniti d'America
Anno: 2018
Genere: drammatico, horror, azione
Stagione: 4
Episodi: 16
Durata: 45 min circa
Lingua: ITA - ENG
Interpreti e personaggi
• Kim Dickens: Madison Clark
• Cliff Curtis: Travis Manawa
• Frank Dillane: Nick Clark
• Alycia Debnam-Carey:  Alicia Clark
• Elizabeth Rodriguez:  Liza Ortiz
• Mercedes Masohn: Ofelia Salazar
• Lorenzo James Henrie: Chris Manawa
• Rubén Blades: Daniel Salazar
• Colman Domingo: Victor Strand
• Michelle Ang: Alex
• Danay García:  Luciana Galvez
• Dayton Callie: Jeremiah Otto
• Daniel Sharman:  Troy Otto
• Sam Underwood:  Jake Otto
• Lisandra Tena: Lola Guerrero
• Maggie Grace: Althea
• Garret Dillahunt:  John Dorie
• Lennie James: Morgan Jones
• Jenna Elfman: Naomi


A Walking Dead spin-off, set in Los Angeles, following two families who must band together to survive the undead apocalypse.

Nella quarta stagione di Fear the Walking Dead vedremo il mondo di Madison Clark e della sua famiglia attraverso nuovi occhi – gli occhi di Morgan Jones, che si unisce alla storia dal mondo di The Walking Dead. Il passato immediato dei personaggi si mescola con un incerto presente di lotta e scoperta quando incontrano nuovi amici, nemici e minacce. Combattono l’uno per l’altro, l’uno contro l’altro e contro una legione di morti per costruire in qualche modo un’esistenza contro la pressione schiacciante delle vite che si stanno disgregando. Ci saranno oscurità e luce; terrore e grazia; eroi, vigliacchi e mercenari si scontrano tutti insieme verso una nuova realtà per Fear the Walking Dead.


.: Screenshot :.



.: Caratteristiche Tecniche :.
[spoiler]
Fear.the.Walking.Dead.4x01.Qual.E.La.Tua.Storia.ITA.ENG.1080p.WEBMux.H264-Morpheus.mkv
Format                                   : Matroska
Format version                           : Version 4 / Version 2
File size                                : 3.96 GiB
Duration                                 : 47mn 8s
Overall bit rate mode                    : Variable
Overall bit rate                         : 12.0 Mbps
Encoded date                             : UTC 2018-04-30 22:26:01
Writing application                      : mkvmerge v7.6.0 ('Garden of Dreams&#39 64bit built on Feb  8 2015 15:12:28
Writing library                          : libebml v1.3.1 + libmatroska v1.4.2
DURATION                                 : 00:47:08.000000000
NUMBER_OF_FRAMES                         : 88375
NUMBER_OF_BYTES                          : 135744000
_STATISTICS_WRITING_APP                  : mkvmerge v7.6.0 ('Garden of Dreams&#39 64bit built on Feb  8 2015 15:12:28
_STATISTICS_WRITING_DATE_UTC             : 2018-04-30 22:26:01
_STATISTICS_TAGS                         : BPS DURATION NUMBER_OF_FRAMES NUMBER_OF_BYTES

Video
ID                                       : 1
Format                                   : AVC
Format/Info                              : Advanced Video Codec
Format profile                           : [email protected]
Format settings, CABAC                   : Yes
Format settings, ReFrames                : 4 frames
Codec ID                                 : V_MPEG4/ISO/AVC
Duration                                 : 47mn 8s
Bit rate mode                            : Variable
Bit rate                                 : 11.2 Mbps
Maximum bit rate                         : 15.0 Mbps
Width                                    : 1 920 pixels
Height                                   : 1 080 pixels
Display aspect ratio                     : 16:9
Frame rate                               : 25.000 fps
Original frame rate                      : 23.976 fps
Color space                              : YUV
Chroma subsampling                       : 4:2:0
Bit depth                                : 8 bits
Scan type                                : Progressive
Bits/(Pixel*Frame)                       : 0.216
Stream size                              : 3.69 GiB (93%)
Language                                 : English
Default                                  : Yes
Forced                                   : No
Color primaries                          : BT.709-5, BT.1361, IEC 61966-2-4, SMPTE RP177
Transfer characteristics                 : BT.709-5, BT.1361
Matrix coefficients                      : BT.709-5, BT.1361, IEC 61966-2-4 709, SMPTE RP177

Audio #1
ID                                       : 2
Format                                   : AC-3
Format/Info                              : Audio Coding 3
Mode extension                           : CM (complete main)
Codec ID                                 : A_AC3
Duration                                 : 47mn 8s
Bit rate mode                            : Constant
Bit rate                                 : 192 Kbps
Channel(s)                               : 2 channels
Channel positions                        : Front: L R
Sampling rate                            : 48.0 KHz
Bit depth                                : 16 bits
Compression mode                         : Lossy
Stream size                              : 64.7 MiB (2%)
Title                                    : ITA
Language                                 : Italian
Default                                  : Yes
Forced                                   : Yes

Audio #2
ID                                       : 3
Format                                   : AC-3
Format/Info                              : Audio Coding 3
Mode extension                           : CM (complete main)
Codec ID                                 : A_AC3
Duration                                 : 47mn 8s
Bit rate mode                            : Constant
Bit rate                                 : 384 Kbps
Channel(s)                               : 6 channels
Channel positions                        : Front: L C R, Side: L R, LFE
Sampling rate                            : 48.0 KHz
Bit depth                                : 16 bits
Compression mode                         : Lossy
Stream size                              : 129 MiB (3%)
Title                                    : ENG
Language                                 : English
Default                                  : No
Forced                                   : No

Text #1
ID                                       : 4
Format                                   : UTF-8
Codec ID                                 : S_TEXT/UTF8
Codec ID/Info                            : UTF-8 Plain Text
Language                                 : Italian
Default                                  : No
Forced                                   : No

Text #2
ID                                       : 5
Format                                   : UTF-8
Codec ID                                 : S_TEXT/UTF8
Codec ID/Info                            : UTF-8 Plain Text
Language                                 : English
Default                                  : No
Forced                                   : No

Text #3
ID                                       : 6
Format                                   : UTF-8
Codec ID                                 : S_TEXT/UTF8
Codec ID/Info                            : UTF-8 Plain Text
Title                                    : SDH
Language                                 : English
Default                                  : No
Forced                                   : No


[/spoiler]

.: Ringraziamenti :.




RESTATE IN SEED ALTRIMENTI

 



[/center]
Info: Per scaricare devi usare un client come uTorrent o Transmission
AnnounceURL
http://tracker.tntvillage.scambioetico.org:2710/announce
Hash 648a5c666606269bbbf4e5a963196cd89ddbc565
Peers seeds: 86 , leech: 44
Size 3.92 GB
Completato 187x
Aggiunto 04.12.18 - 12:12:57
Uploader   ppb1
Votazione (Voti: 0)


Condividi questo bittorrent:


html/blog:


bbcode/forum:




Aggiungi Commento


counter Trung Quốc | Contact Us | Somewhere I Belong