Loading...
 * Dettagli Torrent   globale  | Commenti (0) 


- E.T.Extra Terrestre (1982) Extend Version.720p.H264.italian.english.Ac3-5.1.sub.ita.eng-MIRCrew -


Download via torrent:
Categoria bittorrent BDRip
Descrizione
Visitate mircrew-releases


E.T. the Extra-Terrestrial - E.T.Extra Terrestre (1982) Extend Version.720p.H264.italian.english.Ac3-5.1.sub.ita.eng-MIRCrew




NO FOUND ONLY ORIGINAL RELEASE

My release is always in double track audio italian and Original audio
for select it use VLC or dvd player home
not use wmp

Extend Version

E.T.Extra Terrestre - E.T. the Extra-Terrestrial

(1982)

Quality MIRCrew on HD 720p da  2,1 gb








Paese di produzione Stati Uniti d'America
Anno 1982
Durata 115 minuti
120 minuti (versione estesa del 2002)
Rapporto 1,85 : 1
Genere fantascienza, drammatico
Regia Steven Spielberg
Soggetto Steven Spielberg
Sceneggiatura Melissa Mathison



   Henry Thomas: Elliot
   Dee Wallace: Mary
   Robert MacNaughton: Michael
   Drew Barrymore: Gertie
   Peter Coyote: Keys
   Erika Eleniak: Compagna di classe
   C. Thomas Howell: Tyler
   Sean Frye: Steve
   K.C. Martel: Greg
   Richard Swingler: insegnante di scienze



Una notte, una misteriosa astronave atterra nel bel mezzo di una foresta della California, e da essa scende un gruppo di botanici alieni, che cominciano a prelevare campioni di vegetazione terrestre. Ognuno è caratterizzato da una grande testa, un collo periscopico e un cuore bioluminescente. Essi comunicano con la telepatia e quando il loro cuore si illumina di rosso significa che si sono scambiati determinate informazioni.



After a gentle alien becomes stranded on Earth, the being is discovered and befriended by a young boy named Elliott. Bringing the extraterrestrial into his suburban California house, Elliott introduces E.T., as the alien is dubbed, to his brother and his little sister, Gertie, and the children decide to keep its existence a secret. Soon, however, E.T. falls ill, resulting in government intervention and a dire situation for both Elliott and the alien.









General
Unique ID                                : 137861265099602453266154796386368144491 (0x67B71D261A287E3E92455E55B704C46B)
Complete name                            : E.T.Extra Terrestre.720p.h264.ita.eng.sub.ita.eng-MIRCrewE.T.Extra Terrestre.720p.h264.ita.eng.sub.ita.eng-MIRCrew.mkv
Format                                   : Matroska
Format version                           : Version 4 / Version 2
File size                                : 2.13 GiB
Duration                                 : 1h 54mn
Overall bit rate                         : 2 659 Kbps
Movie name                               : MIRCrew
Encoded date                             : UTC 2018-12-31T23:27:17Z
Writing application                      : mkvmerge v26.0.0 ('In The Game&#39 64-bit
Writing library                          : Lavf55.12.0

Video
ID                                       : 1
Format                                   : AVC
Format/Info                              : Advanced Video Codec
Format profile                           : [email protected]
Format settings, CABAC                   : Yes
Format settings, ReFrames                : 4 frames
Codec ID                                 : V_MPEG4/ISO/AVC
Duration                                 : 1h 54mn
Bit rate                                 : 1 900 Kbps
Width                                    : 1 280 pixels
Height                                   : 704 pixels
Display aspect ratio                     : 16:9
Frame rate mode                          : Variable
Frame rate                               : 23.976 fps
Color space                              : YUV
Chroma subsampling                       : 4:2:0
Bit depth                                : 8 bits
Scan type                                : Progressive
Bits/(Pixel*Frame)                       : 0.088
Stream size                              : 1.47 GiB (69%)
Title                                    : MIRCrew
Writing library                          : x264 core 142 r2479 dd79a61
Encoding settings                        : cabac=1 / ref=1 / deblock=1:0:0 / analyse=0x1:0x111 / me=hex / subme=2 / psy=1 / psy_rd=1.00:0.00 / mixed_ref=0 / me_range=16 / chroma_me=1 / trellis=0 / 8x8dct=0 / cqm=0 / deadzone=21,11 / fast_pskip=1 / chroma_qp_offset=0 / threads=6 / lookahead_threads=2 / sliced_threads=0 / nr=0 / decimate=1 / interlaced=0 / bluray_compat=0 / constrained_intra=0 / bframes=3 / b_pyramid=2 / b_adapt=1 / b_bias=0 / direct=1 / weightb=1 / open_gop=0 / weightp=1 / keyint=240 / keyint_min=24 / scenecut=40 / intra_refresh=0 / rc_lookahead=10 / rc=abr / mbtree=1 / bitrate=1900 / ratetol=1.0 / qcomp=0.60 / qpmin=0 / qpmax=69 / qpstep=4 / vbv_maxrate=20000 / vbv_bufsize=25000 / nal_hrd=none / filler=0 / ip_ratio=1.40 / aq=1:1.00
Language                                 : Italian
Default                                  : Yes
Forced                                   : No
DURATION                                 : 01:54:28.862000000
NUMBER_OF_FRAMES                         : 164688
NUMBER_OF_BYTES                          : 1622054098
_STATISTICS_WRITING_APP                  : mkvmerge v26.0.0 ('In The Game&#39 64-bit
_STATISTICS_WRITING_DATE_UTC             : 2019-01-05 22:18:52
_STATISTICS_TAGS                         : BPS DURATION NUMBER_OF_FRAMES NUMBER_OF_BYTES
Color primaries                          : BT.709-5, BT.1361, IEC 61966-2-4, SMPTE RP177
Transfer characteristics                 : BT.709-5, BT.1361
Matrix coefficients                      : BT.709-5, BT.1361, IEC 61966-2-4 709, SMPTE RP177

Audio #1
ID                                       : 2
Format                                   : AC-3
Format/Info                              : Audio Coding 3
Mode extension                           : CM (complete main)
Codec ID                                 : A_AC3
Duration                                 : 1h 54mn
Bit rate mode                            : Constant
Bit rate                                 : 384 Kbps
Channel(s)                               : 6 channels
Channel positions                        : Front: L C R, Side: L R, LFE
Sampling rate                            : 48.0 KHz
Bit depth                                : 16 bits
Compression mode                         : Lossy
Delay relative to video                  : -5ms
Stream size                              : 314 MiB (14%)
Title                                    : Ita Ac3 5.1
Language                                 : Italian
Default                                  : Yes
Forced                                   : No
DURATION                                 : 01:54:29.088000000
NUMBER_OF_FRAMES                         : 214659
NUMBER_OF_BYTES                          : 329716224
_STATISTICS_WRITING_APP                  : mkvmerge v26.0.0 ('In The Game&#39 64-bit
_STATISTICS_WRITING_DATE_UTC             : 2019-01-05 22:18:52
_STATISTICS_TAGS                         : BPS DURATION NUMBER_OF_FRAMES NUMBER_OF_BYTES

Audio #2
ID                                       : 3
Format                                   : AC-3
Format/Info                              : Audio Coding 3
Mode extension                           : CM (complete main)
Codec ID                                 : A_AC3
Duration                                 : 1h 54mn
Bit rate mode                            : Constant
Bit rate                                 : 384 Kbps
Channel(s)                               : 6 channels
Channel positions                        : Front: L C R, Side: L R, LFE
Sampling rate                            : 48.0 KHz
Bit depth                                : 16 bits
Compression mode                         : Lossy
Delay relative to video                  : -5ms
Stream size                              : 314 MiB (14%)
Title                                    : Eng Ac3 5.1
Language                                 : English
Default                                  : No
Forced                                   : No
DURATION                                 : 01:54:29.088000000
NUMBER_OF_FRAMES                         : 214659
NUMBER_OF_BYTES                          : 329716224
_STATISTICS_WRITING_APP                  : mkvmerge v26.0.0 ('In The Game&#39 64-bit
_STATISTICS_WRITING_DATE_UTC             : 2019-01-05 22:18:52
_STATISTICS_TAGS                         : BPS DURATION NUMBER_OF_FRAMES NUMBER_OF_BYTES


Info: Per scaricare devi usare un client come uTorrent o Transmission
AnnounceURL
udp://tracker.coppersurfer.tk:6969/announce
Hash dbaa8704e529b53684d4e3e0603cd9b1ad0ff809
Peers seeds: 56 , leech: 16
Size 2.13 GB
Completato 607x
Aggiunto 09.01.19 - 18:01:38
Uploader   robbyrs
Votazione (Voti: 0)


Condividi questo bittorrent:


html/blog:


bbcode/forum:




Aggiungi Commento


counter Impulse S01 720p RED WEB-DL AAC5 1 VP9-NTb[ettv] 14 minutes | Arcade 34 minutes | Jack Lemmon