Loading...
 * Dettagli Torrent   globale  | Commenti (0) 


- E solo linizio (2017).720p.H264.italian.english.Ac3-5.1.multisub-MIRCrew -


Download via torrent:
Categoria bittorrent BDRip
Descrizione
Visitate mircrew-releases


Just Getting Started - E solo l inizio (2017).720p.H264.italian.english.Ac3-5.1.multisub-MIRCrew


NO FOUND ONLY ORIGINAL RELEASE

My release is always in double track audio italian and Original audio
for select it use VLC or dvd player home
not use wmp

E solo l inizio

Just Getting Started


(2017)

Quality MIRCrew on HD 720p da  1,9 gb








Titolo originale Just Getting Started
Lingua originale inglese
Paese di produzione Stati Uniti d'America
Anno 2017
Genere azione, commedia
Regia Ron Shelton
Sceneggiatura Ron Shelton



   Morgan Freeman: Duke
   Tommy Lee Jones: Leo
   Rene Russo: Suzie
   Glenne Headly: Margarite
   Joe Pantoliano: Joey
   Elizabeth Ashley: Lily
   Sheryl Lee Ralph: Roberta
   Graham Beckel: Burt



Duke Diver è il direttore di un lussuoso resort a Palm Springs, Villa Capri, dal passato misterioso. Ex avvocato della malavita inserito nel programma protezione testimoni, il suo volto compare su un programma televisivo.



A two-hander action comedy in the vein of Midnight Run (198, about an ex-F.B.I. Agent (Tommy Lee Jones) and an ex-mob lawyer in the Witness Protection Program (Morgan Freeman) having to put aside their petty rivalry on the golf course to fend off a mob hit.

 







General

Complete name                            : E' solo l'inizio - Just Getting Started (2017).720p.h264.ita.eng.multisub-MIRCrewE' solo l'inizio - Just Getting Started (2017).720p.h264.ita.eng.multisub-MIRCrew.mkv
Format                                   : Matroska
Format version                           : Version 2
File size                                : 1.84 GiB
Duration                                 : 1h 30mn
Overall bit rate                         : 2 898 Kbps
Movie name                               : MIRCrew
Encoded date                             : UTC 2018-12-29 13:26:25
Writing application                      : mkvmerge v5.4.0 ('Piper&#39 built on Mar 10 2012 13:34:39
Writing library                          : Lavf54.63.100
COMMENT                                  : mircrew-releases

Video
ID                                       : 1
Format                                   : AVC
Format/Info                              : Advanced Video Codec
Format profile                           : [email protected]
Format settings, CABAC                   : Yes
Format settings, ReFrames                : 2 frames
Codec ID                                 : V_MPEG4/ISO/AVC
Duration                                 : 1h 30mn
Bit rate                                 : 2 000 Kbps
Width                                    : 1 280 pixels
Height                                   : 528 pixels
Display aspect ratio                     : 2.40:1
Frame rate mode                          : Variable
Frame rate                               : 23.976 fps
Color space                              : YUV
Chroma subsampling                       : 4:2:0
Bit depth                                : 8 bits
Scan type                                : Progressive
Bits/(Pixel*Frame)                       : 0.123
Stream size                              : 1.23 GiB (67%)
Title                                    : MIRCrew
Writing library                          : x264 core 130 r2273
Encoding settings                        : cabac=1 / ref=2 / deblock=1:0:0 / analyse=0x1:0x131 / me=hex / subme=7 / psy=1 / psy_rd=1.00:0.00 / mixed_ref=0 / me_range=16 / chroma_me=1 / trellis=1 / 8x8dct=0 / cqm=0 / deadzone=21,11 / fast_pskip=1 / chroma_qp_offset=-2 / threads=6 / lookahead_threads=1 / sliced_threads=0 / nr=0 / decimate=1 / interlaced=0 / bluray_compat=0 / constrained_intra=0 / bframes=3 / b_pyramid=0 / b_adapt=1 / b_bias=0 / direct=3 / weightb=1 / open_gop=0 / weightp=2 / keyint=230 / keyint_min=23 / scenecut=40 / intra_refresh=0 / rc_lookahead=40 / rc=2pass / mbtree=1 / bitrate=2000 / ratetol=1.0 / qcomp=0.60 / qpmin=10 / qpmax=69 / qpstep=4 / cplxblur=20.0 / qblur=0.5 / vbv_maxrate=24000 / vbv_bufsize=24000 / nal_hrd=none / ip_ratio=1.40 / aq=1:1.00
Language                                 : Italian
Default                                  : Yes
Forced                                   : No
DURATION                                 : 01:30:53.457000000
NUMBER_OF_FRAMES                         : 130752
NUMBER_OF_BYTES                          : 6010378956
_STATISTICS_WRITING_APP                  : mkvmerge v28.2.0 ('The Awakening&#39 64-bit
_STATISTICS_WRITING_DATE_UTC             : 2018-12-29 13:26:25
_STATISTICS_TAGS                         : BPS DURATION NUMBER_OF_FRAMES NUMBER_OF_BYTES

Audio #1
ID                                       : 2
Format                                   : AC-3
Format/Info                              : Audio Coding 3
Mode extension                           : CM (complete main)
Codec ID                                 : A_AC3
Duration                                 : 1h 30mn
Bit rate mode                            : Constant
Bit rate                                 : 448 Kbps
Channel(s)                               : 6 channels
Channel positions                        : Front: L C R, Side: L R, LFE
Sampling rate                            : 48.0 KHz
Bit depth                                : 16 bits
Compression mode                         : Lossy
Delay relative to video                  : -5ms
Stream size                              : 291 MiB (15%)
Title                                    : Ita Ac3 5.1
Language                                 : Italian
Default                                  : Yes
Forced                                   : No
DURATION                                 : 01:30:53.600000000
NUMBER_OF_FRAMES                         : 170425
NUMBER_OF_BYTES                          : 305401600
_STATISTICS_WRITING_APP                  : mkvmerge v28.2.0 ('The Awakening&#39 64-bit
_STATISTICS_WRITING_DATE_UTC             : 2018-12-29 13:26:25
_STATISTICS_TAGS                         : BPS DURATION NUMBER_OF_FRAMES NUMBER_OF_BYTES

Audio #2
ID                                       : 3
Format                                   : AC-3
Format/Info                              : Audio Coding 3
Mode extension                           : CM (complete main)
Codec ID                                 : A_AC3
Duration                                 : 1h 30mn
Bit rate mode                            : Constant
Bit rate                                 : 448 Kbps
Channel(s)                               : 6 channels
Channel positions                        : Front: L C R, Side: L R, LFE
Sampling rate                            : 48.0 KHz
Bit depth                                : 16 bits
Compression mode                         : Lossy
Delay relative to video                  : -5ms
Stream size                              : 291 MiB (15%)
Title                                    : Eng Ac3 5.1
Language                                 : English
Default                                  : No
Forced                                   : No
DURATION                                 : 01:30:53.536000000
NUMBER_OF_FRAMES                         : 511269
NUMBER_OF_BYTES                          : 1028673228
_STATISTICS_WRITING_APP                  : mkvmerge v28.2.0 ('The Awakening&#39 64-bit
_STATISTICS_WRITING_DATE_UTC             : 2018-12-29 13:26:25
_STATISTICS_TAGS                         : BPS DURATION NUMBER_OF_FRAMES NUMBER_OF_BYTES

Info: Per scaricare devi usare un client come uTorrent o Transmission
AnnounceURL
udp://tracker.coppersurfer.tk:6969/announce
Hash 5206c27fbde117c6e997f28181ec85c80e58a4b7
Peers seeds: 165 , leech: 43
Size 1.84 GB
Completato 3472x
Aggiunto 10.01.19 - 13:01:56
Uploader   robbyrs
Votazione (Voti: 0)


Condividi questo bittorrent:


html/blog:


bbcode/forum:




Aggiungi Commento


counter Compralo Subito | Kit trasformazione WC da manuale a elettrico 12V - Accessori barca camper | Ch.459 : Looks Aren't Everything